Enterprise earth - Dec 21, 2021 · If “ Legends Never Die ”, “ Reanimate // Disintegrate ” and “ Where Dreams Are Broken ” from the forthcoming new Enterprise Earth album “ The Chosen ” haven’t set you on fire then you probably don’t want to push play on this final interview of 2021 from Heavy New York. It sees them joined by guitarist Gabe Mangold ...

 
Enterprise earthEnterprise earth - Regardless of how you feel about the song (which is amazing, so you're wrong if you think otherwise), you cannot deny that Enterprise Earth is on track to be "that band". Bringing back songs that over 5, 6, and even 7 minutes, incorporating gut-punching lyrics, bone shaking riffs, and blast beats that don't quit, I'd be amazed if the band is ...

Jan 1, 2015 · Porcelain Whore Lyrics. A porcelain replica, a manufactured mask plastered on your hollow skull. There's nothing left anymore, replicating at a rapid rate. Herding together at your master's feet ...Listen to your favorite songs from Enterprise Earth. Stream ad-free with Amazon Music Unlimited on mobile, desktop, and tablet. Download our mobile app now.Jan 14, 2024 · Enterprise Earth, Inferi, Crown Magnetar, and Tracheotomy just announced an epic tour across the U.S. “We are incredibly thrilled to headline North America once again, this time in support of our new album Death: An Anthology, releasing February 2, the band say about the tour.“We’re bringing some of heavy music’s finest in Inferi, Crown Magnetar, and Tracheotomy …Enterprise Earth - Death: An Anthology CD. $11.98. Enterprise Earth - Death: An Anthology Black Ice Marble 2LP. $35.00. Enterprise Earth - Death: An Anthology …Streaming + Download. Includes unlimited streaming via the free Bandcamp app, plus high-quality download in MP3, FLAC and more. Buy Digital …Dec 21, 2021 · If “ Legends Never Die ”, “ Reanimate // Disintegrate ” and “ Where Dreams Are Broken ” from the forthcoming new Enterprise Earth album “ The Chosen ” haven’t set you on fire then you probably don’t want to push play on this final interview of 2021 from Heavy New York. It sees them joined by guitarist Gabe Mangold ... Wednesday, November 15, 2023 – Enterprise Earth have released their latest heavy hitter “The Reaper’s Servant“ featuring the inimitable Darius Tehrani from Spite. …Apr 5, 2019 · View credits, reviews, tracks and shop for the 2019 CD release of "Luciferous" on Discogs.Listen to The Chosen by Enterprise Earth on Apple Music. 2022. 14 Songs. Duration: 1 hour, 7 minutes.Mar 31, 2020 · Requiem Tab by Enterprise Earth. Free online tab player. One accurate version. Play along with original audioRead Enterprise Earth's bio and find out more about Enterprise Earth's songs, albums, and chart history. Get recommendations for other artists you'll love. Playing via Spotify Playing via YouTube. Playback optionsEnterprise Earth is an American deathcore band. Once just one of many online deathcore projects that only had an advantage because of the fame that Dan Watson had gained from Infant Annihilator, they steadily proved themselves as a talented act that could function on its own merits, rather than just "Dan from Infant Annihilator's new band", and became a fast …We would like to show you a description here but the site won’t allow us.Jan 14, 2022 · An instrumental that bridges the chaos to the calm, and a send-off to a pretty awesome record. The Chosen is immensely diverse and captures the essence of so many genres. From deathcore to thrash to djent, you’ll be kept engaged across this giant record, spanning over an hour in duration. Enterprise Earth – The Chosen tracklisting. Enterprise Earth is an American deathcore band. Once just one of many online deathcore projects that only had an advantage because of the fame that Dan Watson had gained from Infant Annihilator, they steadily proved themselves as a talented act that could function on its own merits, rather than just "Dan from Infant Annihilator's new band", and became a fast …Enterprise Earth is known to be a deathcore band from Spokane USA, founded in 2014 by Dan Watson, the ex-Infant Annihilator vocalist, and the ex-Takeover guitarist BJ Sampson. They released their first EP, XXIII soon after the band formed.Enterprise Earth fans rejoice- not only is the Washington band giving us a new album in February next year, they’ve given us a tasty new single ‘King Of Ruination’ featuring Ben Duerr, vocalist of Shadow Of Intent.. Engaging riffs open up the track with a sonically unique sound. Chugging basslines and tough screams take the listener into a … Enterprise Earth - The Chosen Long Box CD. $15.98. Enterprise Earth - The Chosen Ghostly Vinyl. $29.98. Enterprise Earth - The Chosen Blue Cassette Tape. $13.98. Enterprise Earth - The Chosen Hand Written Lyric Cards. $4.98. Enterprise Earth - The Chosen Long Sleeve Shirt. Enterprise Earth cover everything from progressive metal to punishing deathcore on Death: An Anthology, and it is all done with intense care and precision. Brandon Mackey’s percussion is nothing short of immaculate, with stunning footwork highlighting “I, Divine” and the album’s crushing opening track, “Abyss.”.Apr 5, 2019 · Just to live one day without pain. Even God can't wash away these stains. I'm a broken man. Despite the pain, I'll make my stand. It will never stop and neither will I. I'll bear this burden until ...Dec 13, 2018 · New album Luciferous out now.Vinyl/CD/Merch: http://smarturl.it/EELuciferousEU/UK: https://www.impericon.com/us/enterprise-earth.htmlSpotify: https://spoti.f... Jan 4, 2023 · The official music video for our song “Death Magick”🔔 Subscribe to the channel: https://www.youtube.com/channel/UCb7Q...Our album The Chosen is out now and... Band: Enterprise Earth Country: USA Genre: Deathcore / Progressive / Technical Status: Dead to us. Videos. Releases 2022 – The Chosen Quality: AAC TVBR q127 tracklist: 01. Where Dreams Are Broken 02. Reanimate // Disintegrate 03. Unleash Hell 04. I Have To Escape 05. The Tower 06. They Have No Honor 07. Overpass 08. You …ENTERPRISE EARTH, a band committed to brutal audio onslaught and proficient excellence, carves out personal meaning from the darkness. They conjure self-determination and iconoclastic independence, from within the bowels of extremity. enterpriseearthband.com; discography. Death: An Anthology.Mar 16, 2022 · Deathcore band Enterprise Earth have announced the dates for a summer U.S. headlining tour in support of their latest album “The Chosen“. Within Destruction, Sentinels and Great American Ghost will share the stages with them on that trek. Speaking of what to expect, Enterprise Earth guitarist Gabe Mangold commented: Apr 5, 2019 · View credits, reviews, tracks and shop for the 2019 CD release of "Luciferous" on Discogs.A thousand cuts for the thousandth time, my wounds all reopening. So carve me up. A knife soaked in honey so I can't taste the blood. You carved into my teeth, the symbols of your love. The ...December 13, 2018. To call Enterprise Earth "satanic death metal" is too much of a simplification. Yes, the band's latest album due out is titled Luciferous, and the cover features a hermit ... Enterprise Earth. 97K likes · 873 talking about this. https://enterprise-earth.ffm.to/casketofrust Earth Enterprise should be your top choice for a New York City Printer – located right here in Mid-Town & with facilities in New Jersey – we can service all of your print NYC printing needs. We consistently deliver the most complex offset & digital print jobs on time and on budget. Our clients are some of the top brands in the world.Band: Enterprise Earth Country: USA Genre: Deathcore / Progressive / Technical Status: Dead to us. Videos. Releases 2022 – The Chosen Quality: AAC TVBR q127 tracklist: 01. Where Dreams Are Broken 02. Reanimate // Disintegrate 03. Unleash Hell 04. I Have To Escape 05. The Tower 06. They Have No Honor 07. Overpass 08. You …Gordon McPherson. Bass . 2015 - 2017 ex-To The Wind, ex-I Declare War. Brian Moore. Bass . 2015 - 2015 The Browning. Conner Schneberger. Bass . 2014 - 2015 . Kevin ...Jun 2, 2022 · Enterprise Earth have officially welcomed their new singer Travis Worland (Aethere, Bite//Down, The Willow) who has been performing with the group live throughout this year. Guitarist Gabe Mangold comments: “We’re very stoked to officially announce Travis Worland as the new singer of Enterprise Earth. His vocal style, performance, personality, and work ethic areDecember 13, 2018. To call Enterprise Earth "satanic death metal" is too much of a simplification. Yes, the band's latest album due out is titled Luciferous, and the cover features a hermit ...Google Earth Pro on desktop is available for users with advanced feature needs. Import and export GIS data, and go back in time with historical imagery. Available on PC, Mac, or Linux.Enterprise Earth - Event Tickets. May. 3. Nearest event · Mechanicsburg, PA. Fri 6:00 PM · Lovedraft's Brewing Co. Ticketmaster. VIEW TICKETS. The official …Jan 14, 2022 · The title track, unleashes some absolutely beautiful soloing and breathtaking vocal harmonies. That sounds weird for this genre, especially for those of us over 40. But Enterprise Earth makes it ... Enterprise Earth - Where Dreams Are Broken (Official Music Video) 36.4K subscribers. Subscribed. 12K. Share. 593K views 2 years ago #thechosen …Enterprise Earth Enterprise Earth "The Chosen" 2x12" (Ghostly) $33.99. Enterprise Earth Enterprise Earth "The Chosen" 2x12" (Blue Green Red Splatter) $33.99. Enterprise Earth Enterprise Earth "Devil" Longsleeve. $34.99. Sold out. Enterprise Earth Enterprise Earth "Luciferous" 2x12". $33.99.Adriano Randi (Chemistry 2019) has been awarded a Royal Academy of Engineering Enterprise Fellowship to further advance his spin-out company RV3 …Earth Enterprise is the open source release of Google Earth Enterprise, a geospatial application which provides the ability to build and host custom 3D globes and 2D maps. Earth Enterprise does not provide a private version of Google imagery that's currently available in Google Maps or Earth. Fusion - imports and fuses imagery, vector and ...Death Magick by Enterprise Earth, released 04 January 2023 Murder the world so I don’t have to weep anymore. Tear out these vile hearts from the chests of such wicked people. I contort to the wretched shape of destruction, total annihilation. Behold the maelstrom of mankind’s erasure So long overdue. Sorcerer, prophet from the depths.New album Luciferous out now.Vinyl/CD/Merch: http://smarturl.it/EELuciferousEU/UK: https://www.impericon.com/us/enterprise-earth.htmlSpotify: https://spoti.f...The Chosen Guitar Tabs *DIGITAL ONLY*. $25.00. Shipping calculated at checkout. Buy Now. * You will be redirected to studionessa.net for purchase. Guitar tabs for The Chosen in Guitar Pro and PDF.Oct 15, 2019 · Enterprise Earth - “We Are Immortal” New Album Luciferous Out Now. Vinyl/CD/Merch: https://ffm.to/luciferousEU/UK: https://www.impericon.com/us/enterprise-ea... Liste des zones et entreprises franches operationnelles octobre 2020. RAISON SOCIALE. OBJET. Numéro. Date. ABL OUTSOURCING. Projet d’externalisation …The official visualizer for our song “You Couldn't Save Me.” 🔔 Subscribe to the channel: https://www.youtube.com/channel/UCb7Q...The Chosen Merch: https://e...The official music video for our song “The World Without Us"🔔 Subscribe to the channel: https://www.youtube.com/channel/UCb7Q...Our album …Filename C:\EAC rips\Enterprise Earth - Death _ An Anthology (2024) [FLAC CD] [MNK-CD-402260]\11 - Enterprise Earth feat Matthew K. Heafy - Curse of Flesh.wav Peak level 98.8 % Extraction speed 6.9 X Track quality 100.0 % Test CRC F99F4FB4 Copy CRC F99F4FB4 Track not present in AccurateRip databaseJan 14, 2024 · Enterprise Earth, Inferi, Crown Magnetar, and Tracheotomy just announced an epic tour across the U.S. “We are incredibly thrilled to headline North America once again, this time in support of our new album Death: An Anthology, releasing February 2, the band say about the tour.“We’re bringing some of heavy music’s finest in Inferi, Crown Magnetar, and Tracheotomy … Enterprise Earth - The Chosen Clear w/ Translucent Cobalt / Neon Green / Neon Coral - Splattered 2 Vinyl $33.99 favorite_border Add to favorite. Feb 2, 2024 · Stare into sunless skies and reach for what you can't obtain. I gave it all, I took it back, there is no greater price to pay for my betrayal of self. You gave it all, your sacrifice, no peace of ...Mire Lore is a deathcore project formed by Dan Watson of Ex - Enterprise Earth, Ex - Infant Annihilator and Frankie Cilella of Bodysnatcher, Existence Has Failed. in 2016, Mire Lore released their debut song "My Soul To Take" on October 30th, 2016 Also Released Their debut album "… read moreIN STOCK AND SHIPPING NOW! Enterprise Earth - Death: An Anthology CD - (Pre-Order)Available on Compact Disc CD Tracklist: Abyss Face of Fear The Reaper’s Servant (Feat. Darius Tehrani) Spineless King of Ruination (featuring Ben Duerr) Casket of Rust I, Divine Malevolent Force (Feat. Wes Hauch) Accelerated Demise Blood and Teeth Curse of.Enterprise Earth Lyrics. "I, Divine". Taste of condemnation, your nerves ablaze. Your iron will, bent to my name. Bend, fall, writhe, human swine. I am all, I am divine. Infinite cosmos all at my disposal, I speak and the planets divide. Legions of angels and demons alike all bow at the foot of my throne. I am divine.Enterprise Earth is among the most celebrated death metal bands of the modern era. Brooding, thick with atmosphere, groove-driven, old-school death metal with modern flourishes, their music switches gears from earth-shattering breakdowns to sickeningly slow sludge to blast furnace pummeling with seemingly effortless ease. More …Download & stream Enterprise Earth on Audiotree Live -- http://smarturl.it/AT-Enterprise-EarthEnterprise Earth is a deathcore band with elements of thrash, b...Enterprise Earth make their triumphant return with their forthcoming new album Death: An Anthology. Stacked with features from some of deathcore’s finest including but not limited to, Matt Heafy (Trivium), Ben Duerr (Shadow of Intent) Darius Tehrani (Spite), and Wes Hauch (Alluvial) Track 1 – AbyssEnterprise Earth. Enterprise Earth - Shepherd of Synthesis - Hoodie — $39.98. Enterprise Earth - Shepherd of Synthesis - Shirt — $19.98.Snowflake leverages NeMo Retriever to harness enterprise data for building AI applications. Enterprises can deploy NVIDIA microservices included …Feb 27, 2019 · Enterprise Earth have grown monumentally in the two years since the release of Embodiment. Maintaining the same sense of technicality and the same energy but working more on balance and careful songwriting, Luciferous …Enterprise Earth Lyrics. "I, Divine". Taste of condemnation, your nerves ablaze. Your iron will, bent to my name. Bend, fall, writhe, human swine. I am all, I am divine. Infinite cosmos all at my disposal, I speak and the planets divide. Legions of angels and demons alike all bow at the foot of my throne. I am divine.Enterprise Earth will hit the road with Within Destruction, Sentinels, and Great American Ghost this July. 7/22 El Corazon – Seattle, WA 7/23 Dantes – Portland, OR 7/25 Goldfields ...Gordon McPherson. Bass . 2015 - 2017 ex-To The Wind, ex-I Declare War. Brian Moore. Bass . 2015 - 2015 The Browning. Conner Schneberger. Bass . 2014 - 2015 . Kevin ...Nov 18, 2023 · Enterprise Earth is able to give you some of the best deathcore, beatdown metal ever on their own. So, the fact that they included Spite vocalist Darius Tehrani makes it that much heavier. As of late, Darius has been this generation's voice and face of deathcore.Oct 15, 2019 · Enterprise Earth - “We Are Immortal” New Album Luciferous Out Now. Vinyl/CD/Merch: https://ffm.to/luciferousEU/UK: https://www.impericon.com/us/enterprise-ea... Google Earth Pro on desktop is available for users with advanced feature needs. Import and export GIS data, and go back in time with historical imagery. Available on PC, Mac, or Linux.Enterprise Earth spent the next two years touring hard in support of the album, but eventually found the time to head back into the studio and lay down tracks for their sophomore release. The resulting Embodiment appeared in early 2017, and the set reached number six on Billboard's Heatseekers chart.Enterprise Earth - The Chosen Jewel Case CD. ENTERPRISE EARTH reemerges in 2021 with The Chosen, a masterpiece of monstrous brutality and enveloping ambiance. It is the band’s heaviest yet most diverse effort, with shifting attitude, vibe, and desperate aggression stitched throughout its songs.ENTERPRISE EARTH, a band committed to the brutal audio onslaught and proficient excellence, carves out personal meaning from the darkness. They conjure self-determination and iconoclastic ...Dec 13, 2023 · Enterprise Earth have unveiled a third single from fifth studio album, “ Death: An Anthology “. The song “ Casket Of Rust ” went up online today, December 13th, you can check it out below. That record will be out on February 02nd and the band will be overseas around that time to promote it on the road. “Lyrically, it touches on the ... I'm waiting to meet my demise. Death looks over my shoulder. I'm waiting for my demise. I tried to say goodbye. But it was too late to get through to you. I tried to stay alive. And not become the ...A review of the 2024 deathcore album by Enterprise Earth, featuring guest appearances from Spite and Trivium. The review praises the band's … Enterprise Earth - Death: An Anthology Black Ice Marble 2LP. $35.00. Enterprise Earth - Death: An Anthology Inferno 2LP. $35.00. TWWU Long Sleeve. $45.00. TWWU T ... Jan 12, 2022 · Join Dave, Duncan & Kyle as they review ‘The Chosen’, the new album from American deathcore band, Enterprise Earth.. Enterprise Earth – The Chosen Release Date: 14th January 2022 Label: MNRK Heavy Bandcamp Genre: Death Metal, Metal, Deathcore, Technical Deathcore, Progressive Metal, Djent. FFO: Brand of Sacrifice, Whitechapel, After the Burial, …Jun 19, 2020 · Foundation of Bones by Enterprise Earth, released 19 June 2020 1. Foundation of Bones 2. Now You've Got Something To Die For (Lamb Of God) 3. Fermented Offal Discharge (Necrophagist) 4. There Is No Tomorrow (Acoustic) 5. Foundation of Bones (Instrumental) Foundation Of Bones was a spur of the moment idea that quickly came to fruition. Enterprise Earth The Chosen full album / Enterprise Earth The Chosen album playlistDec 21, 2021 · If “ Legends Never Die ”, “ Reanimate // Disintegrate ” and “ Where Dreams Are Broken ” from the forthcoming new Enterprise Earth album “ The Chosen ” haven’t set you on fire then you probably don’t want to push play on this final interview of 2021 from Heavy New York. It sees them joined by guitarist Gabe Mangold ... Enterprise Earth is among the most celebrated death metal bands of the modern era. Brooding, thick with atmosphere, groove-driven, old-school death metal with modern flourishes, their music switches gears from earth-shattering breakdowns to sickeningly slow sludge to blast furnace pummeling with seemingly effortless ease. Grab the helm and go on an adventure in Google Earth.Enterprise Earth - Death: An Anthology CD. $11.98. Enterprise Earth - Death: An Anthology Black Ice Marble 2LP. $35.00. Enterprise Earth - Death: An Anthology …Wednesday, November 15, 2023 – Enterprise Earth have released their latest heavy hitter “The Reaper’s Servant“ featuring the inimitable Darius Tehrani from Spite.Today’s drop is taken from the band’s forthcoming new album ‘Death: An Anthology’ out on Friday, February 2. Speaking on today’s news, Enterprise Earth commented:Enterprise Earth is an American deathcore band. Once just one of many online deathcore projects that only had an advantage because of the fame that Dan Watson had gained from Infant Annihilator, they steadily proved themselves as a talented act that could function on its own merits, rather than just "Dan from Infant Annihilator's new band", and became a fast …ENTERPRISE EARTH is a deathcore music artist. This page includes ENTERPRISE EARTH's : biography, official website, pictures, videos from YouTube, related forum topics, shouts, news, tour dates and events, live eBay auctions, online shopping sites, detailled reviews and ratings and the full discography of albums: studios, live, compilations …Franklin academy boynton beach, 6th avenue honda, Rxsafety, Life church colorado springs, Royal dental care, Food bar near me, Haven humane society, Harbor shores golf, Vicente's supermarket, Atlanticcare, Nail and spa, Primos auto glass, Apartment 2, Sams appleton

"The official music video for “Blood and Teeth”🔔 Subscribe to the channel: https://www.youtube.com/channel/UCb7Qq0icEuZnjpoX_sbE11wHear our new album Death:.... Nn waterworks

Enterprise earthsaint thomas church fifth avenue

Jun 17, 2022 · Enterprise Earth recovered well from Watson’s exit and has recruited successor Travis Worland, who’s known in the scene from bands like Aethere, Bite//Down and The Willow. With the introduction of their new vocalist, the U.S. group quickly recorded a new single with Worland to show fans what the next era of Enterprise Earth might sound like ... Enterprise Earth’s new single “Death Magik” is out now streaming on all platforms. Gabe Mangold playing with Enterprise Earth at the Webster Theatre in Hartford, CT, 11/5/22. Please leave this field empty. Never … Enterprise Earth. . ENTERPRISE EARTH, a band committed to brutal audio onslaught and proficient excellence, carves out personal meaning from the darkness. They conjure self-determination and iconoclastic independence, from within the bowels of extremity. Jan 13, 2022 · I can't stop the tremors, take me to hell. All alone with nothing to live for. I can't stop, take me to hell. And bury my body. Nothing left of me, just rotting. All that's left of me. Is a ... Enterprise Earth will hit the road with Within Destruction, Sentinels, and Great American Ghost this July. 7/22 El Corazon – Seattle, WA 7/23 Dantes – Portland, OR 7/25 Goldfields ...Nov 14, 2023 · "The official music video for “The Reaper’s Servant (ft. Darius Tehrani)”🔔 Subscribe to the channel: https://www.youtube.com/channel/UCb7Qq0icEuZnjpoX_sbE11... Enterprise Earth Lyrics. "He Exists". I always knew that he existed in the depths of my heart. Silently preparing to tear me apart. Defining who I am and what we are. It was the hate in our hearts that got us this far. We created the devil just to see our brothers burn in hell. We created God to be forgiven for the blood that we have spilled.Apr 5, 2019 · Just to live one day without pain. Even God can't wash away these stains. I'm a broken man. Despite the pain, I'll make my stand. It will never stop and neither will I. I'll bear this burden until ...Jan 4, 2023 · The official music video for our song “Death Magick”🔔 Subscribe to the channel: https://www.youtube.com/channel/UCb7Q...Our album The Chosen is out now and... The Chosen Guitar Tabs *DIGITAL ONLY*. $25.00. Shipping calculated at checkout. Buy Now. * You will be redirected to studionessa.net for purchase. Guitar tabs for The Chosen in Guitar Pro and PDF.Jan 14, 2022 · The title track, unleashes some absolutely beautiful soloing and breathtaking vocal harmonies. That sounds weird for this genre, especially for those of us over 40. But Enterprise Earth makes it ... Enterprise Earth - Apple Music. Latest Release. FEB 2, 2024. Death: An Anthology. 11 Songs. Top Songs. This Hell, My Home - Single · 2016. King of …The official visualizer for our song “I Have To Escape.”🔔 Subscribe to the channel: https://www.youtube.com/channel/UCb7Qq0icEuZnjpoX_sbE11wOur album The C...Album Credits. Featuring Ben Duerr, Darius Tehrani, Matthew K. Heafy & 1 more. Producers Enterprise Earth & Gabe Mangold. Writers Ben Duerr, Brandon Zackey, Dakota Johnson & 2 more.Jan 13, 2024 · Enterprise Earth have announced the dates for a North American headlining tour with Inferi, Crown Magnetar and Tracheotomy opening. Enterprise Earth will be launching their guest-filled new album “ Death: An Anthology “ on February 02nd. The technical deathcore outfit are promising revamped stage production and more for this upcoming trek. Feb 27, 2019 · Enterprise Earth have grown monumentally in the two years since the release of Embodiment. Maintaining the same sense of technicality and the same energy but working more on balance and careful songwriting, Luciferous …Streaming + Download. Includes unlimited streaming via the free Bandcamp app, plus high-quality download in MP3, FLAC and more. Buy Digital …Jun 17, 2022 · Cradled by the hate that was bred in the dark. Fed by my heart. Slowly festering until the only voice in my head is fear. I have to find a way out. If Apollo's holy face never shines upon me. I'll ...Liste des zones et entreprises franches operationnelles octobre 2020. RAISON SOCIALE. OBJET. Numéro. Date. ABL OUTSOURCING. Projet d’externalisation …Enterprise Earth on Audiotree Live. 02:48 06. The Failsafe Fallacy (Audiotree Live Version) Enterprise Earth. Enterprise Earth on Audiotree Live. 04:43 (P) 2014 We Are Triumphant 14-10-2014 23. 01. Intro-23 . Enterprise Earth. 23. 02:47 02. The Truman Show . …Enterprise Earth is known to be a deathcore band from Spokane USA, founded in 2014 by Dan Watson, the ex-Infant Annihilator vocalist, and the ex-Takeover guitarist BJ Sampson. They released their first EP, XXIII soon after the band formed.Jan 14, 2022 · The title track, unleashes some absolutely beautiful soloing and breathtaking vocal harmonies. That sounds weird for this genre, especially for those of us over 40. But Enterprise Earth makes it ... Enterprise Earth - Death: An Anthology CD. $11.98. Enterprise Earth - Death: An Anthology Black Ice Marble 2LP. $35.00. Enterprise Earth - Death: An Anthology …Release Date: 4.14.17. “The lyrics in Embodiment are the thoughts of a character in a story I wrote. The character perceives the world as if he was a god sent to the earth to live among humanity ...March 16, 2022. in News. Progressive deathcore outfit Enterprise Earth will return to the road this Summer on a month-long US headlining tour. The Chosen Tour begins July 22nd in Seattle, Washington and runs through August 20th in Salt Lake City, Utah. Support will be provided by Within Destruction, Sentinels, and labelmates, Great American Ghost."The official music video for “Blood and Teeth”🔔 Subscribe to the channel: https://www.youtube.com/channel/UCb7Qq0icEuZnjpoX_sbE11wHear our new album Death:...Jun 17, 2022 · Cradled by the hate that was bred in the dark. Fed by my heart. Slowly festering until the only voice in my head is fear. I have to find a way out. If Apollo's holy face never shines upon me. I'll ...Enterprise Earth fans rejoice- not only is the Washington band giving us a new album in February next year, they’ve given us a tasty new single ‘King Of Ruination’ featuring Ben Duerr, vocalist of Shadow Of Intent.. Engaging riffs open up the track with a sonically unique sound. Chugging basslines and tough screams take the listener into a … Enterprise Earth is an American deathcore band from Spokane, Washington. The band was formed in mid-2014 by former members Dan Watson (formerly of Infant Annihilator) and BJ Sampson (formerly of Takeover) on vocals and guitars respectively. Multi-track audio was recorded live and mixed for video by Leo Sypniewski.All uploads are now mixed live for everyone to see on my Twitch channel, follow for...Enterprise Earth Lyrics. "He Exists". I always knew that he existed in the depths of my heart. Silently preparing to tear me apart. Defining who I am and what we are. It was the hate in our hearts that got us this far. We created the devil just to see our brothers burn in hell. We created God to be forgiven for the blood that we have spilled.Mar 31, 2020 · Requiem Tab by Enterprise Earth. Free online tab player. One accurate version. Play along with original audioThen disintegrate. Standing at the edge of the earth. Looking back at the life I lived. Cold and decomposed. There's nothing left for me to give. I gave everything I had just so I could amount to something. Cold and decomposed. There's nothing left. I …Enterprise Earth make their triumphant return with their forthcoming new album Death: An Anthology. Stacked with features from some of deathcore’s finest including but not limited to, Matt Heafy (Trivium), Ben Duerr (Shadow of Intent) Darius Tehrani (Spite), and Wes Hauch (Alluvial) Track 1 – Abyss Enterprise Earth - Death: An Anthology Black Ice Marble 2LP. $35.00. Enterprise Earth - Death: An Anthology Inferno 2LP. $35.00. TWWU Long Sleeve. $45.00. TWWU T ... Filename C:\EAC rips\Enterprise Earth - Death _ An Anthology (2024) [FLAC CD] [MNK-CD-402260]\11 - Enterprise Earth feat Matthew K. Heafy - Curse of Flesh.wav Peak level 98.8 % Extraction speed 6.9 X Track quality 100.0 % Test CRC F99F4FB4 Copy CRC F99F4FB4 Track not present in AccurateRip databaseEnterprise Earth Lyrics. "He Exists". I always knew that he existed in the depths of my heart. Silently preparing to tear me apart. Defining who I am and what we are. It was the hate in our hearts that got us this far. We created the devil just to see our brothers burn in hell. We created God to be forgiven for the blood that we have spilled.Enterprise Earth - “We Are Immortal” New Album Luciferous Out Now. Vinyl/CD/Merch: https://ffm.to/luciferousEU/UK: https://www.impericon.com/us/enterprise-ea...The title track, unleashes some absolutely beautiful soloing and breathtaking vocal harmonies. That sounds weird for this genre, especially for those of us over 40. But Enterprise Earth makes it ...Jun 2, 2022 · Enterprise Earth have officially welcomed their new singer Travis Worland (Aethere, Bite//Down, The Willow) who has been performing with the group live throughout this year. Guitarist Gabe Mangold comments: “We’re very stoked to officially announce Travis Worland as the new singer of Enterprise Earth. His vocal style, performance, personality, and work ethic areIn Monday’s keynote at Nvidia’s GTC 2024 event, CEO Jensen Huang kept repeating the phrase “AI factory.”. “In the last Industrial Revolution, the raw …NASA's Earth Science Enterprise will use space- and surface-based measurement systems to provide the scientific basis for understanding global change. The space-based components will provide a constellation of satellites to monitor the Earth from space. A major component of the Earth Science Enterprise is the Earth Observing … Enterprise Earth is among the most celebrated death metal bands of the modern era. Brooding, thick with atmosphere, groove-driven, old-school death metal with modern flourishes, their music switches gears from earth-shattering breakdowns to sickeningly slow sludge to blast furnace pummeling with seemingly effortless ease. Enterprise Earth Lyrics. "He Exists". I always knew that he existed in the depths of my heart. Silently preparing to tear me apart. Defining who I am and what we are. It was the hate in our hearts that got us this far. We created the devil just to see our brothers burn in hell. We created God to be forgiven for the blood that we have spilled.Feb 2, 2024 · Enterprise Earth have paired today’s (February 02nd) release of their new album “Death: An Anthology” with the premiere of a music video for the featured track “Blood And Teeth“. The deathcore group also weighed in on this single and its video accompaniment, which was directed by Nick Chance ( Crown Magnetar , Orthodox ). Original Video Here - https://www.youtube.com/watch?v=Da6_cg0qcVMBôndy is a social enterprise that operates in the field of reforestation in Madagascar. Our model is to address the causes of deforestation by involving local …Star Trek: Enterprise. ) " Carbon Creek " is the second episode of the second season of the science fiction television series Star Trek: Enterprise, the 28th episode overall. It first aired on September 25, 2002, on the UPN in the United States. Only three of the main cast appear in this episode. It features a flashback story, and T'Pol tells ...Jan 4, 2023 · Enterprise Earth Kick Off 2023 with ‘Death Magick’. As we burst into 2023, it’s easy to reminisce over the mid-January 2022 deathcore decimation of albums from the likes of Fit For An Autopsy, Shadow of Intent and Worm Shepherd; and amongst that list was also Washington deathcore four-piece Enterprise Earth who released The Chosen with ... Dec 13, 2023 · Enterprise Earth have unveiled a third single from fifth studio album, “ Death: An Anthology “. The song “ Casket Of Rust ” went up online today, December 13th, you can check it out below. That record will be out on February 02nd and the band will be overseas around that time to promote it on the road. “Lyrically, it touches on the ... Apr 5, 2019 · death metal deathcore metal metalcore brutal death metalcore United States. Luciferous by Enterprise Earth, released 05 April 2019 1. Behold, Malevolence 2. Sleep Is For The Dead 3. He Exists 4. Scars Of The Past 5. Ashamed To Be Human 6. Requiem 7. The Failsafe Fallacy 8. Filename C:\EAC rips\Enterprise Earth - Death _ An Anthology (2024) [FLAC CD] [MNK-CD-402260]\11 - Enterprise Earth feat Matthew K. Heafy - Curse of Flesh.wav Peak level 98.8 % Extraction speed 6.9 X Track quality 100.0 % Test CRC F99F4FB4 Copy CRC F99F4FB4 Track not present in AccurateRip databaseJan 14, 2022 · Atlas Lyrics. “Where Dreams Are Broken opens the album with a savage display of what’s in-store, from nearly unfathomable speed, buzzsaw guitars, and staccato punch to swinging sludgy swagger ... Filename C:\EAC rips\Enterprise Earth - Death _ An Anthology (2024) [FLAC CD] [MNK-CD-402260]\11 - Enterprise Earth feat Matthew K. Heafy - Curse of Flesh.wav Peak level 98.8 % Extraction speed 6.9 X Track quality 100.0 % Test CRC F99F4FB4 Copy CRC F99F4FB4 Track not present in AccurateRip databaseApr 5, 2019 · Just to live one day without pain. Even God can't wash away these stains. I'm a broken man. Despite the pain, I'll make my stand. It will never stop and neither will I. I'll bear this burden until ...LICENSE #425442 (A-License) General Engineering Contractor (C27-License) Landscape Contractor (C53-License) Swimming Pool Contractor0:51. Friday marks two weeks since a University of Missouri college senior vanished under the cover night in downtown Nashville. Riley Strain, 22, …Enterprise Earth is an American deathcore band from Spokane, Washington. The band was formed in mid-2014 by former members Dan Watson (formerly of Infant Annihilator) and BJ Sampson (formerly of Takeover) on vocals and guitars respectively. At the beginning of the spring , the band finalised … See moreThe unfathomable depths of my hatred descends. Encompassing the earth with the flames of my revenge. I am the product of the hate that you have for yourselves. You were always waiting in line at ...Oct 11, 2023 · Enterprise Earth‘s new studio album “Death: An Anthology” will be arriving on February 02nd through MNRK Heavy. Adding to the announcement is the debut of a first single from the album, “ King Of Ruination “, which features a guest spot from Shadow Of Intent vocalist Ben Duerr . Earth Krahang could be another penetration team under the same company.” Simon Hendery Simon Hendery is a freelance IT consultant …Wednesday, November 15, 2023 – Enterprise Earth have released their latest heavy hitter “The Reaper’s Servant“ featuring the inimitable Darius Tehrani from Spite.Today’s drop is taken from the band’s forthcoming new album ‘Death: An Anthology’ out on Friday, February 2. Speaking on today’s news, Enterprise Earth commented:Jan 14, 2022 · Atlas Lyrics. “Where Dreams Are Broken opens the album with a savage display of what’s in-store, from nearly unfathomable speed, buzzsaw guitars, and staccato punch to swinging sludgy swagger ... Enterprise Earth cover everything from progressive metal to punishing deathcore on Death: An Anthology, and it is all done with intense care and precision. Brandon Mackey’s percussion is nothing short of immaculate, with stunning footwork highlighting “I, Divine” and the album’s crushing opening track, “Abyss.”.Enterprise Earth spent the next two years touring hard in support of the album, but eventually found the time to head back into the studio and lay down tracks for their sophomore release. The resulting Embodiment appeared in early 2017, and the set reached number six on Billboard's Heatseekers chart.Recommended for the Enterprise Earth - 23 Logo Jersey. Official Enterprise Earth Merchandise Pick up this brand new, limited Hockey Jersey NOW. PLEASE READ: Note that this item is a pre order, the expected shipment date is January 20th. Please give up to 3 weeks for shipping, international orders may take longer.Mar 31, 2020 · Requiem Tab by Enterprise Earth. Free online tab player. One accurate version. Play along with original audioEnterprise Earth will hit the road with Within Destruction, Sentinels, and Great American Ghost this July. 7/22 El Corazon – Seattle, WA 7/23 Dantes – Portland, OR 7/25 Goldfields ...Enterprise Earth spent the next two years touring hard in support of the album, but eventually found the time to head back into the studio and lay down tracks for their sophomore release. The resulting Embodiment appeared in early 2017, and the set reached number six on Billboard's Heatseekers chart.NASA’s Earth Science Division (ESD) missions help us to understand our planet’s interconnected systems, from a global scale down to minute processes. ESD delivers the technology, expertise, global observations, and applications that help us map the myriad connections between our planet’s vital processes and the climate effects of …Jun 17, 2022 · Cradled by the hate that was bred in the dark. Fed by my heart. Slowly festering until the only voice in my head is fear. I have to find a way out. If Apollo's holy face never shines upon me. I'll .... Bettinardi golf putter, Basie theater, Outlets houston, Little books, Qwick bet, Valley professionals, White oak cottage, Robbies islamorada, Lyric theater okc.